#TITLE:SandStorm;
#SUBTITLE:;
#ARTIST:DARUDE;
#TITLETRANSLIT:;
#SUBTITLETRANSLIT:;
#ARTISTTRANSLIT:;
#CREDIT:;
#BANNER:Sandstormpreview.PNG;
#BACKGROUND:Sandstorm1.PNG;
#LYRICSPATH:;
#CDTITLE:./CDTITLES/DANCE DANCE REVOLUTION 5TH MIX.PNG;
#MUSIC:DDR - Sandstorm.mp3;
#OFFSET:-0.056;
#SAMPLESTART:13.070;
#SAMPLELENGTH:12.000;
#SELECTABLE:YES;
#DISPLAYBPM:145.000;
#BPMS:0.000=136.000;
#STOPS:;
#BGCHANGES:;
// cache tags:
#FIRSTBEAT:3.000;
#LASTBEAT:516.000;
#SONGFILENAME:Songs/nhac/Sandstormfullversion/Sandstorm.sm;
#HASMUSIC:1;
#HASBANNER:1;
#MUSICLENGTH:226.074;
// end cache tags

//---------------dance-double - ----------------
#NOTES:
     dance-double:
     :
     Easy:
     4:
     0.134,0.169,0.128,0.000,0.000,183.000,29.000,0.000,0.000,0.000:
00000000
00000000
00000000
00000000
,
00000000
00000000
00000000
00000000
,
00000000
00000000
00000000
00000000
,
00000000
00000000
00000000
00000000
,
00100000
10000000
01000000
00010000
,
00001000
00000100
00000001
00000010
,
00000010
00000001
00000100
00001000
,
00010000
01000000
10000000
00100000
,
10000000
01100000
00010000
00011000
,
00000100
00000110
00000001
00001001
,
00000001
00000110
00001000
00011000
,
01000000
01100000
10000000
10010000
,
00100000
10000000
01000000
00010000
,
00001000
00000010
00000001
00000100
,
00000010
00000001
00000100
00001000
,
00010000
00100000
10000000
01000000
,
10000000
01000000
00010000
00001000
,
00001000
00010000
01000000
00100000
,
00100000
00001000
00010000
00000100
,
00000100
00000010
00000001
00000100
,
00001001
00000100
00001000
00010000
,
01000000
10000000
00100000
10000000
,
10000000
01000000
00010000
00001000
,
00000100
00000001
00000010
00000001
,
00000001
00000100
00000000
00001000
,
00000000
00010000
00000000
01000000
,
00000000
10010000
00100000
10000000
,
01000000
00010000
00001000
00010000
,
01000000
01000000
00010000
00001000
,
00000100
00000001
00000010
00000001
,
00000100
00000010
00001001
00000100
,
00001100
00010000
00011000
01000000
,
10010000
00100000
10010000
01000000
,
01010000
00001000
00011000
00000100
,
00001001
00000010
00000010
00000100
,
00000100
00001000
00001000
00010000
,
01000000
10000000
00000000
01000000
,
00000000
00010000
00000000
00001000
,
00000000
00000100
00000000
00000000
,
00000000
00000001
00000000
00000001
,
00000000
00000001
00000000
00000001
,
00000000
00000001
00000000
00000100
,
00011000
00100000
10100000
10000000
,
11000000
00010000
01010000
00001000
,
00011000
00000010
00000110
00000001
,
00001100
00001000
00011000
00010000
,
01100000
01100000
01100000
00000000
,
10000000
00000000
01000000
00000000
,
00010000
00000000
00001000
00000100
,
00000001
00000010
00000010
00000010
,
00000010
00000010
00000001
00000100
,
00001000
00010000
00001000
00000100
,
00001000
00010000
01000000
10000000
,
00100000
01000000
00010000
10000000
,
01000000
00010000
00001000
00000000
;

//---------------dance-double - ----------------
#NOTES:
     dance-double:
     :
     Medium:
     6:
     0.165,0.181,0.115,0.000,0.000,235.000,26.000,0.000,0.000,0.000:
00000000
00000000
00000000
00000000
,
00000000
00000000
00000000
00000000
,
00000000
00000000
00000000
00000000
,
00000000
00000000
00000000
00000000
,
00100000
00000000
10000000
00000000
01000000
00010000
00001000
00000000
,
00001000
00000100
00000001
00000000
00000001
00001000
00000100
00000000
,
00000010
00000000
00000001
00000000
00000100
00001000
00000100
00000000
,
00001000
00010000
01000000
00000000
10000000
00000000
01010000
00000000
,
10000000
01100000
00010000
00011000
,
00000100
00000000
00000110
00000000
00000001
00001000
00000100
00000000
,
00000001
00000110
00001000
00011000
,
01000000
00000000
01100000
00000000
10000000
00010000
01000000
00000000
,
00100000
00000000
10000000
00000000
01000000
10000000
00010000
00000000
,
01000000
00000000
00001000
00000000
00010000
00000100
00000010
00000000
,
00001000
00000000
00000001
00000000
00000100
00001000
00000100
00000000
,
00010000
00000000
00100000
00000000
01000000
10000000
01000000
00000000
,
00100000
10000000
01000000
00000000
00100000
00010000
01000000
00000000
,
00001000
00000100
00000010
00000000
00000001
00001000
00000100
00000000
,
00010000
00100000
00010000
00001000
,
00000010
00000000
00001000
00000000
00010000
00001000
00000100
00000000
,
00001001
00000100
00001000
00010000
,
01000000
00000000
10000000
00000000
00100000
10000000
01000000
00000000
,
10000000
01000000
00010000
00000000
00010000
00001000
00000100
00000000
,
00000100
00000001
00000010
00000100
00000010
00000001
00000100
00000000
,
00001001
00000100
00000000
00001000
,
00000000
00010000
00000000
01000000
,
00000000
10000000
00100000
10000000
,
01000000
00000000
00010000
00000000
00001000
00000000
00010000
01000000
,
01000000
01000000
00010000
00001000
,
00000100
00000000
00000001
00000000
00001000
00000000
00000001
00000100
,
00000100
00000010
00001001
00000100
,
00011000
00000000
00100000
00000000
10010000
00000000
10000000
01000000
,
00100000
00100000
10010000
01000000
,
00011000
00000000
00000010
00000000
00001001
00000000
00000001
00000100
,
00000010
00001000
00001000
00000001
,
00000100
00001000
00001000
00010000
,
01000000
00000000
10000000
00010000
01000000
00000000
10000000
01000000
,
00100000
00001000
00000000
00010000
,
00000000
00001000
00000000
00000000
,
00000000
00000000
00000001
00001000
00000100
00000000
00000001
00001000
,
00000100
00000000
00000100
00010000
00001000
00000000
00000100
00010000
,
00001000
00000000
00100000
00010000
10000000
00000000
00100000
00010000
,
10000000
00000000
00100000
00000000
10100000
00000000
00100000
10000000
,
01000000
00000000
00010000
00000000
01010000
00000000
00001000
00010000
,
00000100
00000000
00000010
00000000
00000110
00000000
00000001
00001000
,
00000100
00000000
00001000
00000000
00011000
00000000
00010000
01000000
,
10000000
01100000
01100000
00000000
,
01100000
00000000
10000000
00000000
,
01000000
00000000
00010000
00001000
,
00000100
00000001
00000010
00000000
00000010
00000001
00000100
00000000
,
00001000
00010100
00001000
00010100
,
00010000
01001000
00010000
01001000
,
00001000
00000000
00010000
00000000
00100000
10000000
01000000
00000000
,
00010000
10000000
01000000
00000000
10000000
01000000
00010000
00001000
,
00010000
01000000
00100000
00000000
00001000
00000000
00000000
00000000
;

//---------------dance-double - ----------------
#NOTES:
     dance-double:
     :
     Hard:
     7:
     0.200,0.220,0.088,0.000,0.004,296.000,20.000,0.000,0.000,0.000:
00000000
00000000
00000000
00000000
,
00000000
00000000
00000000
00000000
,
00000000
00000000
00000000
00000000
,
00000000
00000000
00000000
00000000
,
00100000
10000000
01000000
00010000
00001000
00000000
01010000
00000000
,
00100000
00010000
01000000
00001000
00010000
00000000
00001100
00000000
,
00000010
00000000
00000001
00001000
00000100
00000000
00011000
00000000
,
01000000
00000000
10000000
01000000
00000000
00000000
01010000
00000000
,
00100000
10000000
01000000
00010000
00001000
00000100
00001000
00010000
,
00001000
00000100
00000001
00000010
00000100
00010000
00001000
00000000
,
00100000
01000000
10000000
00010000
01000000
00100000
01000000
00010000
,
00100000
00001000
00010000
01000000
00010000
00001000
00000100
00000000
,
00000001
00000100
00001000
00010000
00001000
00000100
00001000
00000100
,
00000001
00000010
00001000
00010000
00100000
00010000
00001000
00000000
,
00000010
00000001
00000100
00001000
00010000
01000000
00100000
00010000
,
01000000
00001000
00010000
01000000
00010000
00001000
00000100
00000000
,
00000001
00000000
00001000
00000100
00000000
00000001
00000000
00000100
,
00000000
00010000
00000000
10000000
00000000
01000000
10000000
00000000
,
10000000
00000000
00010000
01000000
00000000
10000000
00000000
01000000
,
00000000
00001000
00000000
00000001
00000000
00000100
00000001
00000000
,
00000010
00000000
00000000
00001000
00000000
00000000
00000000
00000000
,
00100000
10000000
01000000
00010000
,
00001000
00000100
00000001
00000010
00000001
00000100
00001000
00010000
,
01000000
00000000
10000000
00000000
00010000
00000000
01000000
00000000
00010000
01000000
00000000
00010000
01000000
00000000
10000000
00000000
,
01000000
01000000
00000000
00000000
,
00000000
01000000
00000000
00000000
,
00000000
00000000
10010000
00000000
01000000
00010000
00001000
00000100
,
00001000
00010000
00010000
00001000
00000100
00000001
00000010
00000100
,
00001000
00000000
00000010
00000100
00001000
00010000
00001000
00000100
,
00001000
00010000
01000000
10000000
00100000
00010000
00001000
00100000
,
01000000
00000000
10010000
00000000
11000000
00000000
00100000
00010000
,
01000000
00001000
00010000
00001000
00000100
00000001
00000010
00000100
,
00001000
00000000
00110000
00000000
10010000
00000000
00100000
10000000
,
01000000
00010000
00001000
00000100
00001000
00010000
01000000
00000000
,
00011000
00000000
00000001
00000000
00000000
00000100
00000000
00000000
,
00001000
00000000
00000000
00010000
01000000
10000000
00000000
10000000
,
01000000
00010000
00000000
00001000
00000100
00000001
00000000
00000010
,
00000100
00001000
00000000
00000010
00010000
00001000
00000000
00100000
,
01000000
10000000
01010000
00000000
10000000
00000000
01000000
00000000
,
00010000
00001000
00000100
00000100
,
00000100
00000000
00000001
00000010
00000100
00001000
00000001
00000100
,
00001000
00010000
01000000
10000000
00010000
00100000
01000000
10000000
,
00010000
00000000
10100000
00000000
11000000
00000000
00010000
10000000
,
01000000
00000000
01000000
00010000
00001000
00000000
00001000
00000100
,
00000001
00000000
00000011
00000000
00000101
00000000
00001000
00000001
,
00000100
00000000
00000100
00001000
00010000
00000000
00010000
01000000
,
10000000
10010000
11000000
00000000
,
01000000
00010000
00001000
00000000
00000101
00000000
00000000
00000000
,
00000100
00001000
00010000
00000000
01000000
00000000
11000000
00000000
,
01000000
00100000
00001000
00010000
01000000
00000000
11000000
00000000
,
01000000
00100000
00001000
00010000
01000000
00000000
00000000
10000000
,
00000000
00000000
00010000
00000000
00100000
00010000
10000000
01000000
,
00010000
00001000
00000100
00000010
00001000
00000100
00010000
00001000
,
00000010
00000001
00000100
00001000
00010000
01000000
10000000
00100000
,
10000000
01000000
00010000
00001000
00000100
00000000
00000000
00010000
,
00000000
10000000
00000000
00000000
;

//---------------dance-single - Good steps yet hard----------------
#NOTES:
     dance-single:
     Good steps yet hard:
     Challenge:
     15:
     0.950,1.000,0.336,0.106,1.000,1389.000,76.000,24.000,0.000,15.000:
0000
0000
0000
2022
,
0000
0000
0000
0000
,
0000
0000
0000
0000
,
0000
0000
0000
0000
,
0000
0000
0000
0000
,
3033
2000
3200
0320
,
0230
2300
3200
0320
,
0230
2300
3200
0320
,
0032
0000
0000
0000
0003
0000
0000
0000
1011
0000
1000
0100
0010
0001
0010
0100
,
0000
0000
0000
0000
,
0000
0000
0000
0000
0000
0000
0000
0000
2020
0000
0000
0000
3130
1000
0100
0010
,
0001
0000
0000
0000
,
0000
0000
0000
0000
0000
0000
0000
0000
0000
0000
0000
0000
1000
0100
0010
0001
,
0010
0100
0000
0000
1000
0100
0010
0001
0010
0100
0000
0000
1000
0100
0010
0001
,
0010
0100
0000
0000
0100
0010
0001
0010
0100
1000
0100
0000
0000
0100
0010
0001
,
0010
0100
1000
0100
0010
0001
0010
0100
1000
0100
0010
0001
0010
0100
1000
0100
,
0010
0001
0010
0100
2022
0000
0000
0000
0000
0000
3033
1000
0100
0010
0001
0010
,
0100
0000
1000
0100
0010
0001
0010
0100
0000
1000
0100
0010
0001
0010
0100
1000
,
0100
0010
0001
0010
0100
1000
0100
0010
0001
0000
0100
1000
0100
1000
0100
1000
,
0100
0000
0100
0010
0001
0010
0100
1000
0100
0000
0010
0001
0010
0110
0100
0100
,
0000
1000
0100
0010
0001
0010
0100
0000
1000
0100
0010
0001
0010
0100
1000
0100
,
0010
0001
0001
0001
0001
0001
0001
0000
1000
0100
0010
0001
0010
0100
1000
0100
,
0010
0001
0010
0100
1000
0100
0010
0001
0010
0100
1000
0100
0010
0001
0000
0001
,
0010
0100
1000
0100
0010
0000
1000
0100
0010
0001
0010
0100
0000
1000
0100
0010
,
0010
0010
0010
0010
0000
0000
0010
0100
1000
0100
0010
0001
0010
0000
0100
0100
,
0100
0100
0100
0100
0100
0000
0010
0001
0010
0100
1000
0100
0010
0000
0001
0010
,
0100
1000
0100
0010
0001
0010
0100
1000
0100
0010
0001
0010
0100
1000
0100
0010
,
0001
0010
0100
1100
0100
0010
0001
0001
0010
0100
1000
1000
0100
0100
0010
0010
,
0001
0001
0010
0010
0100
0100
1000
1000
1000
0100
0010
0001
0010
0100
1000
0100
,
0010
0001
0010
0100
1000
0100
0010
0001
0010
0110
0100
1000
0100
0010
0001
0010
,
0110
1000
0100
0010
0001
0010
0010
0100
1000
0100
0010
0001
0011
0011
0010
0100
,
1000
0100
0010
0001
0010
0100
1000
0100
0010
0001
0010
0100
1000
0100
0010
0001
,
0010
0001
0010
0001
0010
0001
0010
0100
0010
0100
0010
0100
1000
0100
0010
0001
,
0100
0001
0100
1000
0010
0001
0100
1000
0010
0100
0001
1000
0000
0100
0010
1000
,
0000
0100
0010
1000
0110
0010
1100
1000
0110
0010
1100
0010
0010
0001
0110
1000
,
1000
0100
0100
0001
0010
0100
0001
0100
1000
0101
0000
0100
0001
1100
1000
0100
,
0010
0110
0100
1000
0110
0010
0001
0010
0100
1000
0100
0010
0001
0010
0100
0100
,
0010
0000
0000
0010
0000
0000
0100
0000
0000
0010
0000
0000
0100
0000
0000
0110
0000
0000
0100
0000
0000
0010
0000
0000
0010
0000
0000
1100
0000
0000
1000
0000
0000
0110
0000
0000
0010
0000
1000
0000
0110
0000
1000
0000
0000
1000
0000
0000
,
0100
0010
0001
0010
0100
1000
0100
0010
0000
1000
0010
1000
0100
0100
1000
0100
,
0010
0011
1010
0100
1000
0100
0010
0001
0010
0010
0100
1000
0000
1000
0100
0010
,
0100
1000
0100
1000
0010
0010
0100
1000
0100
1100
1100
1100
1100
1100
1100
0000
,
0010
0001
0010
0100
0100
0010
0100
0010
1000
1000
0100
0011
1100
0010
1000
0010
,
1000
0110
0010
0010
0001
0110
0010
0011
0100
1000
0100
0010
0010
0001
0010
0100
,
0100
0100
1100
0010
0110
0100
1000
0100
0001
0001
0010
0100
1100
0110
0010
0100
,
0100
0000
0100
0010
0010
0100
1000
0010
0011
1100
1100
0100
0010
0100
1100
1000
,
0100
0010
0001
0110
0100
0010
0010
0100
0100
0010
0010
0100
0100
0010
0010
0100
,
0100
1000
1000
0100
0110
0010
0100
0010
0100
1000
0010
0011
0001
0100
1000
0100
,
0010
0001
0000
0100
0010
0001
0100
1100
1100
0100
0010
0010
1100
1000
0100
1000
,
0100
0011
0010
0100
0010
0001
0100
0110
0010
0010
0010
1100
0100
0110
0010
0100
,
0010
0000
0000
0000
,
0000
0000
0000
0000
,
0000
0000
0000
0000
,
0000
0000
0000
1011
,
0000
0000
0000
1011
,
0000
1011
0000
1011
0000
1011
0000
0000
,
0000
0000
0000
0000
,
0000
0000
0000
0111
,
0000
0000
0000
0000
,
0000
0000
0000
0000
,
0000
0000
0000
0000
,
0000
0000
0000
0000
,
0000
0000
0000
0000
,
0000
0000
0000
0000
,
0000
0000
0000
0000
,
0000
0000
0000
0000
0000
0000
0000
0000
1011
0000
1000
0100
0010
0001
0010
0100
,
0000
0000
0000
0000
,
0000
0000
0000
0000
0000
0000
0000
0000
1100
0000
1000
0100
0010
0001
0010
0100
,
0000
0000
0000
0000
,
0000
0000
0000
0000
0000
0000
0000
0000
0000
0000
0000
0000
1100
1000
0100
0010
,
0001
0010
0100
0000
0000
0000
0000
0000
0000
0000
0000
0000
0000
0000
0000
0000
,
0000
0000
0000
0000
0000
0000
0000
0000
0111
0000
1000
0100
0010
0001
0010
0100
,
0000
0010
0000
0000
0000
0000
0000
0000
0000
0000
0000
0000
0000
0000
0000
0000
,
0000
0000
0000
0000
0000
0000
0000
0000
1011
0000
1000
0100
0010
0001
0010
0100
,
0000
0000
0000
0000
0000
0000
0000
0000
0000
0000
0000
0000
1000
0100
0010
0001
,
0010
0100
0000
0000
0000
0000
0000
0000
0000
0000
0000
0000
1100
1000
0100
0010
,
0001
0010
0100
0000
0000
0000
0000
0000
0000
0000
0000
0000
1000
0100
0010
0001
,
0010
0100
0000
0000
0000
0000
0000
0000
0000
1011
0000
0000
1000
0100
0010
0001
,
0010
0100
0000
0100
1000
0100
0100
1000
0100
0000
1000
0100
0010
0001
0010
0100
,
0000
1000
0100
0010
0001
0010
0100
0000
0100
0010
0001
0010
0100
1000
0000
1000
,
0100
0010
0001
0010
0100
0000
1000
0100
0010
0001
0010
0100
0000
1000
0100
0010
,
0001
0010
0100
0000
1000
0100
0010
0001
0010
0100
0000
1000
0100
0110
0010
0001
,
0010
0100
0000
1000
0100
0010
0001
0010
0100
1000
0100
0010
0001
0010
0100
1000
,
0100
0010
0001
0010
0100
1000
0100
0010
0001
0010
0100
1000
0100
0010
0001
0010
,
0100
1000
0100
0010
0001
0010
0100
1000
0100
0010
0001
0010
0100
0010
1100
0100
,
0010
0001
1000
0100
0011
1100
0000
0010
1100
0110
0011
0100
0100
1000
0010
1001
,
0000
0010
1000
0100
0010
0001
0010
0100
1000
0100
0010
0001
0010
0100
1000
0100
,
0010
0001
0010
0100
1000
0100
0010
0001
0010
0200
1300
0100
0010
0001
0001
0010
,
0100
1000
0100
0010
0001
0010
0100
1000
0100
0010
0001
0010
0100
1000
0100
0010
,
0001
0010
0100
1000
0100
0010
0001
0010
0100
1000
0100
0010
0001
0010
0100
1000
,
0100
0010
0001
0010
0100
1000
0100
0010
0001
0010
0100
1000
0100
0010
0001
0010
,
0100
1000
0100
0010
0001
0010
0100
1000
0100
0010
0001
0010
0100
1000
0100
0010
,
0001
0010
0100
1000
0100
0010
0001
0010
0100
1000
0100
0010
0001
0010
0100
1000
,
0100
0010
0001
0010
0001
0010
0001
0010
0001
0010
0100
0010
0100
0010
0100
0010
,
0100
0010
0100
0010
1000
0100
0010
0001
0001
0010
0100
1000
0100
0010
0001
0010
,
0100
1000
0100
0010
0001
0010
0100
1000
0100
0010
0001
0010
1000
0100
0010
0001
,
0010
0100
1000
0100
0010
0001
0010
0100
1000
0100
0010
0001
0010
0100
1000
0100
,
0010
0001
0010
0100
1000
0100
0010
0001
0010
0100
1000
1000
0100
0010
0001
0010
,
0100
1000
1000
0100
0010
0001
0010
0100
1000
1000
0100
0010
0001
0010
0100
1000
,
1000
0100
0010
0001
0010
0100
1000
1000
0100
0010
0001
0010
0100
1000
1000
0100
,
0010
0001
0010
0100
1000
1000
0100
0010
0001
0010
0100
1000
1000
0100
0010
0001
,
0010
0100
1000
1000
0100
0010
0001
0010
0100
1000
1000
0100
0010
0001
0010
0100
,
1000
1000
0100
0010
0001
0010
0100
1000
1000
0100
0010
0001
0010
0100
1000
1000
,
0100
0010
0001
0010
0100
1000
1000
0100
0010
0001
0010
0100
1000
1000
0100
0010
,
0001
0010
0100
1000
1000
0100
0010
0001
0010
0100
1000
1000
0100
0010
0001
0010
,
0100
1000
1000
0100
0010
0001
0010
0100
1000
1000
0100
0010
0001
0010
0100
1000
,
1000
0100
0010
0001
0010
0100
1000
1000
0100
0010
0001
0010
0100
1000
1000
0100
,
0010
0001
0010
0100
1000
1000
0100
0010
0001
0010
0100
1000
1000
0100
0010
0001
,
0010
0100
1000
1000
0100
0010
0001
0010
0100
1000
1000
0100
0010
0001
0010
0100
,
1000
1000
0100
0010
0001
0010
0100
1000
1000
0100
0010
0001
0010
0100
1000
1000
,
0100
0010
0001
0010
0100
1000
1000
0100
0010
0001
0010
0100
1000
1000
0100
0010
,
0001
0010
0100
1000
1000
0100
0010
0001
0010
0100
1000
0100
1000
1000
0100
0010
,
0001
0010
0100
1000
1000
0100
0010
0001
0010
0100
1000
1000
0100
0010
0001
0010
,
0100
1000
1000
0100
0010
0001
0010
0100
1000
1000
0100
0010
0001
0010
0100
1000
,
1000
0100
0010
0001
0010
0100
1000
1000
0100
0010
0001
0010
0100
1000
1000
0100
,
0010
0001
0010
0100
1000
1000
0100
0010
0001
0010
0100
1000
0100
0010
0001
0010
,
0100
1000
1000
0100
0010
0001
0010
0100
1000
1000
0100
0010
0001
0010
0100
1000
,
1000
0100
0010
0001
0010
0100
1000
1000
0100
0010
0001
0010
0100
1000
1000
0100
,
0010
0001
0010
0100
1000
1000
0100
0010
0001
0010
0100
1000
1000
0100
0010
0001
,
0010
0100
1000
1000
0100
0010
0001
0010
0100
1000
1000
0100
0010
0001
0010
0100
,
1000
1000
0100
0010
0001
0010
0100
1000
1000
0100
0010
0001
0010
0100
1000
1000
,
0100
0010
0001
0010
0100
1000
1000
0100
0010
0001
0010
0100
1000
1000
0100
0010
,
0001
0010
0100
1000
1000
0100
0010
0001
0010
0100
1000
1000
0100
0010
0001
0010
,
0100
1000
1000
0100
0010
0001
0010
0100
1000
1000
0100
0010
0001
0010
0100
1000
,
1000
0100
0010
0001
0010
0100
1000
1000
0100
0010
0001
0010
0100
1000
1000
0100
,
0010
0001
0010
0100
1000
1000
0100
0010
0001
0010
0100
1000
2022
0000
0000
0000
,
0000
0000
0000
0000
,
0000
0000
0000
0000
,
0000
0000
0000
0000
,
0000
0000
0000
0000
,
3033
0000
0000
0000
;
